Подписаться на блог
В Твиттере

Реплики и ссылки на заметки

В Фейсбуке

Ссылки на заметки

Вконтакте

Ссылки на заметки

В Телеграме

Ссылки на заметки

В Тумблере

Заметки целиком

В Же-же

Заметки целиком

По РСС

Заметки целиком

Если что-то из этого не работает, напишите мне: ilyabirman@ilyabirman.ru.

Школьные годы чудесные

Если вы со мной примерно одного возраста, то на ваших школьных-лагерных дискотеках играло примерно то же, что на моих. Скутер, Е-Тайп, Аква, Диджей Бобо, Ля Буш... Эти песни с дурацкими текстами про любовь и секс с рэперскими вставками и примитивными синтезаторными мелодиями знают почти все мои друзья и знакомые, но практически никто не знает, что из этого чьё и что как называется — оно и понятно, всё это просто «евроденс», какая там разница.

Я давно уже собираю замечательную музыку того времени, и теперь вот я решил взять самые-самые сливки и сделать из этого микс. Сведены треки как можно менее интрузивно, многие хорошо звучат просто встык, поэтому я так и сделал. Материал прошёл очень серьёзный отбор перед попаданием в этот микс, например, туда не вошли Доктор Албан, Вигфилд, Капитан-Голливуд-проджект и Капитан Джек, Гала, Капелла, Фан-фактори, Мо-до, Снеп, Венгабойс, Хедэвей, Син виз Себастиан, а также Беллини с Каррилио, хотя все эти ребята тоже зажигают.

Евроденс

Скачайте 54 минуты чистой ностальгии в мп3 и танцуйте на здоровье.

А вот ещё Алексей Малинин сделал cue-файл.

Подписаться на блог
Поделиться
Отправить
Запинить
2009   музыка
31 комментарий
Михаил Шемешев

Спасибо, приятно вспомнить, жаль лишь битрейт маленький — 160, нельзя ли увеличить до 320?

Илья Бирман

В этом смысла нет — где вы найдёте все эти песни в таком качестве? Думаете, они у меня на лицензионных дисках стоят на полочке? :-)

mrgluek

Спасибо, а можно треклист?

Илья Бирман

Попозже :-)

Артур Пайкин

Это просто отлично. Спасибо, Илья.

Илья

Очень странно, что упомянутые хоть как-то с натягом зажигающие ребята в микс не вошли, а вошло почти самое отвратительное из того, что было в этот самый отвратительный в истории мейнстримной музыки период.

Не без доли иронии замечу, что микс очень наглядно показывает, насколько хорошо вся эта полуторанотная ущербность складно и стройно сливается в один гомогенный ЫЫЫ.

Не могу поверить, что под этот мрак сравнительно вменяемые люди, включая меня, с серьезным видом топтались на танцполе.

Не с целью критиковать автора, но... не могу молчать. Музыка того периода ужасна своей агрессивной бездарностью.

Илья Бирман

Вам стоит поработать над развитием музыкального вкуса.

djahn

привет, дядь
:)

Слава

Дааа!!! :-)

Егор Львовский

Отличная подборка :) Спасибо большое, Илья.

Родион Жабрев

Илья, а почему «реп», но не «рэп»? В своё время для себя я принял решение писать через «э», основываясь только на визуальном восприятии. Меня «реп» к чему-то народному отсылает, из-за сказок, думаю. Ваше решение на чём основано?

Хау мач из зе фиш... Оу, ес!
Я как-то наткнулся в сети на «Кислотного диджея», не смог не скачать и не послушать раз так пять. Это ещё при том, что я как факта лишён ностальгических чувств. Просто приятно иногда с дебильной рожей под что-нибудь олдовое посходить с ума.

Илья Бирман

Реп написал потому, что э после согласных — это как-то не очень по-русски. Но посмотрел в словарь (удивительно, там есть это слово), там написано с э, так что исправляю, спасибо.

Макс Заметкин

Эта тему всплывает все чаще.
Вот недавно составлял себе приветственный трек-лист 90-х.
А вчера с друзьями за игрой в маджонг радовались блоку этой же музыки в эфире одного из музканалов.
Спасибо, послушаю.

Ярослав Швецов

Oldskool music :) Ностальгия попёрла. Спасибо.

Дмитрий

Спасибо!

Михаиле Шемешев

ВКонтакте можно найти все эти песни в приличном битрейте (256+, а то и 320), а скачать с помощью vpleer.ru

MjStalker

Ой, а на 22:20 что за тема играет?

Илья Бирман

Paradisio — Bailando (Paradisio, 1997, CNR Music, Бельгия)

Руслан Кеба

Спасибо.
Присоединяюсь к желающим увидеть треклист.

Евгений Ядрихинский

Ребята, мы стареем.

Вячеслав Ильинский

Scatman на высоте =) Помню группа «Вакуум» была популярна.

Владимир Алехин

Советую поискать Pool Mix 90’s — более 8 часов непреходящей ностальгии.
http://www.poolmix.net/html/90sdvd.html — вот треклист.
слушается на одном дыхании.

Илья Бирман

Хорошие песни, но это немного другая тема. Это больше похоже на формат суперского радио «Модерн».

Владимир Алехин

Там есть все. Сначала все медленно и спокойно. Собственно то что называется Eurodance начинается где-то часа за 3 до конца.

Арматурыч

Послушаем! Очень интересно :-)

Алексей Малинин

Илья, думаете ли вы над вторым миксом и включением в него того ,что не вошло в первый? =)

Илья Бирман

Думаю :-)

Дмитрий Зимин

Переходы удались, не замечаю их — сплошной нонстоп. Клево, сенкю!

Николай

Спасибо огромное, Илья. Скачал, послушал, прям как в школьные годы или первые курсы института попал. Эх, хорошее время было, беззаботное... Спасибо.

Алексей Малинин

Илья, выложите, пожалуйста, cue-файл. Может, даже без названий — чтобы можно было «прыгать» по трекам или залить микс на аудиодиск не одним треком, а с человечской разбивкой.

Кстати, можно сделать подарок на 8-е марте в виде диска =)

Илья Бирман

Алексей, буду вам благодарен, если вы сами сделаете cue-файл. Вот точки для прыжков: 0:00, 3:38, 7:21, 12:06, 15:54, 19:32, 22:20, 26:11, 29:10, 32:08, 34:41, 38:09, 41:47, 45:18, 48:41, 50:45.

Алексей Малинин

Получился файлик «Ilya Birman — Eurodance (Studio Mix).cue»:
PERFORMER «Ilya Birman»
TITLE «Eurodance (Studio Mix).mp3»
FILE «Ilya Birman — Eurodance (Studio Mix).mp3» MP3
TRACK 01 AUDIO
INDEX 01 00:00:00
TRACK 02 AUDIO
INDEX 01 03:38:00
TRACK 03 AUDIO
INDEX 01 07:21:00
TRACK 04 AUDIO
INDEX 01 12:06:00
TRACK 05 AUDIO
INDEX 01 15:54:00
TRACK 06 AUDIO
INDEX 01 19:32:00
TRACK 07 AUDIO
INDEX 01 22:20:00
TRACK 08 AUDIO
INDEX 01 26:11:00
TRACK 09 AUDIO
INDEX 01 29:10:00
TRACK 10 AUDIO
INDEX 01 32:08:00
TRACK 11 AUDIO
INDEX 01 34:41:00
TRACK 12 AUDIO
INDEX 01 38:09:00
TRACK 13 AUDIO
INDEX 01 41:47:00
TRACK 14 AUDIO
INDEX 01 45:18:00
TRACK 15 AUDIO
INDEX 01 48:41:00
TRACK 16 AUDIO
INDEX 01 50:45:00

Алексей Артемов

Есть у французов такое замечательное радио — http://www.only90s.com/
Там цельный день такое в нонстопе, практически без рекламы, единственное иногда попадаются неизвестные «нам» французские исполнители того времени и пару раз было, что у них клинило список и начинался повтор через 3 часа. Ещё есть канал Eurodance на www.di.fm (http://www.di.fm/eurodance/), но там и современные вещи попадаются. А для тех кому модный токарь и сандра с женесисом нравится есть канал Best of
the 80s на www.sky.fm (http://www.sky.fm/the80s/)

Владимир Казаринов

Илья, спасибо огромное, это великолепно!

Mister Nobody

Офигенно клёво.

Глеб Кондратенко

Илья, Спасибо! Микс просто потрясающий : )
Узнал примерно три четверти композиций. А половине композиций мы с девушкой в голос подпевали : )

Артем

PERFORMER «VA»
TITLE «Eurodance (Studio Mix) — Mixed by Ilya Birman.mp3»
FILE «Ilya Birman — Eurodance (Studio Mix).mp3» MP3
TRACK 01 AUDIO
TITLE «How Much Is The Fish?»
PERFORMER «Scooter»
INDEX 01 00:00:00
TRACK 02 AUDIO
TITLE «Love Message»
PERFORMER «Various»
INDEX 01 03:38:00
TRACK 03 AUDIO
TITLE «Runaway»
PERFORMER «Real McCoy»
INDEX 01 07:21:00
TRACK 04 AUDIO
TITLE «Mr. Vain»
PERFORMER «Culture Beat»
INDEX 01 12:06:00
TRACK 05 AUDIO
TITLE «Getaway»
PERFORMER «Maxx»
INDEX 01 15:54:00
TRACK 06 AUDIO
TITLE «Barbie Girl»
PERFORMER «Aqua»
INDEX 01 19:32:00
TRACK 07 AUDIO
TITLE «Bailando»
PERFORMER «Paradisio»
INDEX 01 22:20:00
TRACK 08 AUDIO
TITLE «Dub I Dub»
PERFORMER «Me & My»
INDEX 01 26:11:00
TRACK 09 AUDIO
TITLE «Scatman»
PERFORMER «Scatman John»
INDEX 01 29:10:00
TRACK 10 AUDIO
TITLE «Rhythm Of The Night»
PERFORMER «Corona»
INDEX 01 32:08:00
TRACK 11 AUDIO
TITLE «Think About The Way»
PERFORMER «Ice MC»
INDEX 01 34:41:00
TRACK 12 AUDIO
TITLE «Be My Lover»
PERFORMER «La Bouche»
INDEX 01 38:09:00
TRACK 13 AUDIO
TITLE «This Is The Way»
PERFORMER «E-Type»
INDEX 01 41:47:00
TRACK 14 AUDIO
TITLE «Let The Dream Come True»
PERFORMER «DJ Bobo»
INDEX 01 45:18:00
TRACK 15 AUDIO
TITLE «No Limits»
PERFORMER «2 Unlimited»
INDEX 01 48:41:00
TRACK 16 AUDIO
TITLE «Generation Of Love»
PERFORMER «Masterboy»
INDEX 01 50:45:00

Илья Бирман

:-) Лучше бы ссылку поставили.

Илья

Удивительно, половина знакома :)
Понравилось вступление no-no-no-no.
Спасибо :)

Пользовательский интерфейс
Доступен первый раздел
электронного учебника

Популярное